#TITLE:You"ve Got a Friend in Porn;
#SUBTITLE:;
#ARTIST:Sean Cullen;
#TITLETRANSLIT:;
#SUBTITLETRANSLIT:;
#ARTISTTRANSLIT:;
#CREDIT:;
#BANNER:You've Got a Friend in Porn-banner.PNG;
#BACKGROUND:You've Got a Friend in Porn-bg.PNG;
#LYRICSPATH:;
#CDTITLE:animemun-cdtitle.PNG;
#MUSIC:You've Got a Friend in Porn.mp3;
#OFFSET:-0.150;
#SAMPLESTART:21.700;
#SAMPLELENGTH:12.500;
#SELECTABLE:YES;
#BPMS:0.000=132.800;
#STOPS:;
#BGCHANGES:;
// cache tags:
#FIRSTBEAT:1.500;
#LASTBEAT:239.000;
#SONGFILENAME:Songs/Music V.I.P ^_^/You've Got a Friend in Porn/Friend.sm;
#HASMUSIC:1;
#HASBANNER:1;
#MUSICLENGTH:111.501;
// end cache tags

//---------------dance-single - ----------------
#NOTES:
     dance-single:
     :
     Easy:
     4:
     0.301,0.322,0.251,0.493,0.000,152.000,28.000,55.000,0.000,0.000:  // measure 1
0000
0000
0000
1000
0000
0000
2002
0000
,  // measure 2
0000
3003
0000
0000
0100
0000
0000
0002
,  // measure 3
0000
0000
0003
0000
0000
0010
0000
0000
,  // measure 4
2000
0000
0000
3000
0000
1000
0000
0010
,  // measure 5
0000
2000
0000
3000
0000
0100
0000
0000
,  // measure 6
2002
0000
0000
0000
0000
3003
0220
0000
,  // measure 7
0000
0000
0000
0000
0330
0001
0000
0000
,  // measure 8
1000
0000
0010
0100
,  // measure 9
0010
1000
0001
0000
0000
0000
0000
0010
,  // measure 10
0001
0000
0001
0010
1000
0000
0000
0000
,  // measure 11
0000
0000
0001
0000
1000
0000
0000
0100
,  // measure 12
0020
0000
0030
0000
0000
0010
0000
1000
,  // measure 13
0000
0010
0000
1000
0000
0002
0000
0000
,  // measure 14
0003
0000
0000
0100
0000
0100
0000
0010
,  // measure 15
0020
0000
0030
0000
0000
0010
0000
0200
,  // measure 16
0000
0300
1000
0020
0000
0030
0001
0000
,  // measure 17
0020
0000
0000
0030
1000
0000
0010
0000
,  // measure 18
0002
0000
0000
0003
0000
0000
0010
0000
,  // measure 19
0100
0000
0000
1000
0000
0020
0000
0000
,  // measure 20
0030
0001
0100
0010
,  // measure 21
2002
0000
3003
0000
0010
0100
0000
1000
,  // measure 22
0000
0100
0010
0000
0002
0000
0103
0000
,  // measure 23
0000
1000
0000
0000
0001
0000
0000
0200
,  // measure 24
0000
0000
0310
0000
1000
0000
0000
0100
,  // measure 25
0000
0001
0200
0000
0300
0000
1010
0000
,  // measure 26
1000
0110
0001
0220
,  // measure 27
0000
0330
0001
0000
1000
0000
0010
0000
,  // measure 28
0000
0200
0000
0000
0000
0301
0000
0100
,  // measure 29
0000
0101
2002
0000
,  // measure 30
0000
0000
0000
3003
0100
0000
0001
0000
,  // measure 31
0100
0000
0000
0010
0000
0000
0100
0000
,  // measure 32
0000
0220
0000
0330
0000
0000
0010
0000
,  // measure 33
0001
0000
1000
2002
0000
0000
0000
3003
,  // measure 34
0000
0000
0010
0000
0000
1000
0000
0001
,  // measure 35
0000
0200
0000
0000
0300
0000
0000
1001
,  // measure 36
0000
0000
1000
0000
0020
0000
0030
1000
,  // measure 37
0000
0000
0010
0000
0001
2000
0000
3000
,  // measure 38
0000
0000
0010
0000
0000
1000
0000
0001
,  // measure 39
0000
0020
0030
0000
,  // measure 40
0001
0000
2002
0000
,  // measure 41
3003
0100
0010
0010
,  // measure 42
0220
0000
0000
0000
0330
0100
0000
0100
,  // measure 43
0000
0100
0220
0000
0000
0000
0330
0001
,  // measure 44
0000
0001
0000
0001
0220
0000
0000
0000
,  // measure 45
0000
0330
1000
0000
1000
0000
1000
0000
,  // measure 46
2000
0000
0000
3000
0000
0200
0300
0000
,  // measure 47
0011
0000
0002
0000
0000
0000
0000
0003
,  // measure 48
0000
0000
1100
0000
0011
0000
0000
2000
,  // measure 49
0000
3000
1001
1001
,  // measure 50
0000
0210
0000
0300
0000
0000
0110
0000
,  // measure 51
0000
0000
1001
0000
0020
0000
0000
0030
,  // measure 52
0000
1000
0000
0010
0000
1000
0000
0010
,  // measure 53
0000
1000
0000
0200
0000
0000
0000
0300
,  // measure 54
0000
0001
0000
0100
0000
0001
0000
0100
,  // measure 55
0000
0020
0000
0000
0000
0000
0030
0000
,  // measure 56
0000
0000
0110
0000
0000
1001
0000
0000
,  // measure 57
0220
0000
0000
0330
0000
0000
2002
0000
,  // measure 58
0000
0000
0000
0000
,  // measure 59
0000
0000
0000
0000
,  // measure 60
0000
0000
0000
3003
;
